[HoneyGod] 进击的巨人第三季/Shingeki no Kyojin S3[38-59][Part1+Part2][粤日双语][BDrip_1080p][全22集]

簡介: 

 [HoneyGod] 进击的巨人第三季/Shingeki no Kyojin S3[38-59][Part1+Part2][粤日双语][BDrip_1080p]

 [HoneyGod] 进击的巨人第三季/Shingeki no Kyojin S3[38-59][Part1+Part2][x265_10bit][粤日双语][BDrip_1080p]

粤语音轨来自J2

还是那句话 做种不太好 下载建议使用μTorrent

推荐播放器:potplayer

粤日动漫Q群517440006

 

[HoneyGod] Shingeki no Kyojin S3 [01][x265_10bit][粤日双语][BDrip_1080p].mkv

容器:Matroska

总码率:5 248 kb/s

大小:898 MiB

时长:23 min 56 s 20 ms


视频(1):HEVC

Profile:Main [email protected]@Main

码率:3 467 kb/s

文件大小:593 MiB (66%)

分辨率:1920x1080

画面比例:16:9(1.778)

像素宽高比:1.000

帧率:23.976 (24000/1001) FPS

色彩空间:YUV

色度抽样:4:2:0

位深度:10 bits

总帧数:34429

编码库:x265 3.0_Audcbec33bfb0f:[Windows][GCC 8.2.1][64 bit] 10bit

编码设置:cpuid=1111039 / frame-threads=3 / numa-pools=8 / wpp / no-pmode / no-pme / no-psnr / no-ssim / log-level=2 / input-csp=1 / input-res=1920x1080 / interlace=0 / total-frames=34429 / level-idc=0 / high-tier=1 / uhd-bd=0 / ref=4 / no-allow-non-conformance / no-repeat-headers / annexb / no-aud / no-hrd / info / hash=0 / no-temporal-layers / open-gop / min-keyint=23 / keyint=250 / gop-lookahead=0 / bframes=4 / b-adapt=2 / b-pyramid / bframe-bias=0 / rc-lookahead=25 / lookahead-slices=4 / scenecut=40 / radl=0 / no-splice / no-intra-refresh / ctu=64 / min-cu-size=8 / rect / no-amp / max-tu-size=32 / tu-inter-depth=1 / tu-intra-depth=1 / limit-tu=0 / rdoq-level=2 / dynamic-rd=0.00 / no-ssim-rd / signhide / no-tskip / nr-intra=0 / nr-inter=0 / no-constrained-intra / strong-intra-smoothing / max-merge=3 / limit-refs=3 / limit-modes / me=3 / subme=3 / merange=57 / temporal-mvp / weightp / no-weightb / no-analyze-src-pics / deblock=0:0 / sao / no-sao-non-deblock / rd=4 / no-early-skip / rskip / no-fast-intra / no-tskip-fast / no-cu-lossless / no-b-intra / no-splitrd-skip / rdpenalty=0 / psy-rd=2.00 / psy-rdoq=1.00 / no-rd-refine / no-lossless / cbqpoffs=0 / crqpoffs=0 / rc=crf / crf=18.0 / qcomp=0.60 / qpstep=4 / stats-write=0 / stats-read=0 / ipratio=1.40 / pbratio=1.30 / aq-mode=2 / aq-strength=1.00 / cutree / zone-count=0 / no-strict-cbr / qg-size=32 / no-rc-grain / qpmax=69 / qpmin=0 / no-const-vbv / sar=1 / overscan=0 / videoformat=5 / range=0 / colorprim=2 / transfer=2 / colormatrix=2 / chromaloc=0 / display-window=0 / max-cll=0,0 / min-luma=0 / max-luma=1023 / log2-max-poc-lsb=8 / vui-timing-info / vui-hrd-info / slices=1 / no-opt-qp-pps / no-opt-ref-list-length-pps / no-multi-pass-opt-rps / scenecut-bias=0.05 / no-opt-cu-delta-qp / no-aq-motion / no-hdr / no-hdr-opt / no-dhdr10-opt / no-idr-recovery-sei / analysis-reuse-level=5 / scale-factor=0 / refine-intra=0 / refine-inter=0 / refine-mv=0 / refine-ctu-distortion=0 / no-limit-sao / ctu-info=0 / no-lowpass-dct / refine-analysis-type=0 / copy-pic=1 / max-ausize-factor=1.0 / no-dynamic-refine / no-single-sei / no-hevc-aq / qp-adaptation-range=1.00


音频(2):FLAC

大小:91.0 MiB (10%)

码率:531 kb/s

采样率:48.0 kHz

声道数:2


====详细信息====

ID                                       : 1

Format                                   : HEVC

Format/Info                              : High Efficiency Video Coding

Format profile                           : Main [email protected]@Main

Codec ID                                 : V_MPEGH/ISO/HEVC

Duration                                 : 23 min 55 s

Bit rate                                 : 3 467 kb/s

Width                                    : 1 920 pixels

Height                                   : 1 080 pixels

Display aspect ratio                     : 16:9

Frame rate mode                          : Constant

Frame rate                               : 23.976 (24000/1001) FPS

Color space                              : YUV

Chroma subsampling                       : 4:2:0

Bit depth                                : 10 bits

Bits/(Pixel*Frame)                       : 0.070

Stream size                              : 593 MiB (66%)

Writing library                          : x265 3.0_Audcbec33bfb0f:[Windows][GCC 8.2.1][64 bit] 10bit

Encoding settings                        : cpuid=1111039 / frame-threads=3 / numa-pools=8 / wpp / no-pmode / no-pme / no-psnr / no-ssim / log-level=2 / input-csp=1 / input-res=1920x1080 / interlace=0 / total-frames=34429 / level-idc=0 / high-tier=1 / uhd-bd=0 / ref=4 / no-allow-non-conformance / no-repeat-headers / annexb / no-aud / no-hrd / info / hash=0 / no-temporal-layers / open-gop / min-keyint=23 / keyint=250 / gop-lookahead=0 / bframes=4 / b-adapt=2 / b-pyramid / bframe-bias=0 / rc-lookahead=25 / lookahead-slices=4 / scenecut=40 / radl=0 / no-splice / no-intra-refresh / ctu=64 / min-cu-size=8 / rect / no-amp / max-tu-size=32 / tu-inter-depth=1 / tu-intra-depth=1 / limit-tu=0 / rdoq-level=2 / dynamic-rd=0.00 / no-ssim-rd / signhide / no-tskip / nr-intra=0 / nr-inter=0 / no-constrained-intra / strong-intra-smoothing / max-merge=3 / limit-refs=3 / limit-modes / me=3 / subme=3 / merange=57 / temporal-mvp / weightp / no-weightb / no-analyze-src-pics / deblock=0:0 / sao / no-sao-non-deblock / rd=4 / no-early-skip / rskip / no-fast-intra / no-tskip-fast / no-cu-lossless / no-b-intra / no-splitrd-skip / rdpenalty=0 / psy-rd=2.00 / psy-rdoq=1.00 / no-rd-refine / no-lossless / cbqpoffs=0 / crqpoffs=0 / rc=crf / crf=18.0 / qcomp=0.60 / qpstep=4 / stats-write=0 / stats-read=0 / ipratio=1.40 / pbratio=1.30 / aq-mode=2 / aq-strength=1.00 / cutree / zone-count=0 / no-strict-cbr / qg-size=32 / no-rc-grain / qpmax=69 / qpmin=0 / no-const-vbv / sar=1 / overscan=0 / videoformat=5 / range=0 / colorprim=2 / transfer=2 / colormatrix=2 / chromaloc=0 / display-window=0 / max-cll=0,0 / min-luma=0 / max-luma=1023 / log2-max-poc-lsb=8 / vui-timing-info / vui-hrd-info / slices=1 / no-opt-qp-pps / no-opt-ref-list-length-pps / no-multi-pass-opt-rps / scenecut-bias=0.05 / no-opt-cu-delta-qp / no-aq-motion / no-hdr / no-hdr-opt / no-dhdr10-opt / no-idr-recovery-sei / analysis-reuse-level=5 / scale-factor=0 / refine-intra=0 / refine-inter=0 / refine-mv=0 / refine-ctu-distortion=0 / no-limit-sao / ctu-info=0 / no-lowpass-dct / refine-analysis-type=0 / copy-pic=1 / max-ausize-factor=1.0 / no-dynamic-refine / no-single-sei / no-hevc-aq / qp-adaptation-range=1.00

Default                                  : Yes

Forced                                   : No


ID                                       : 2

Format                                   : FLAC

Format/Info                              : Free Lossless Audio Codec

Codec ID                                 : A_FLAC

Duration                                 : 23 min 56 s

Bit rate mode                            : Variable

Bit rate                                 : 531 kb/s

Channel(s)                               : 2 channels

Channel positions                        : Front: L R

Sampling rate                            : 48.0 kHz

Frame rate                               : 11.719 FPS (4096 spf)

Bit depth                                : 16 bits

Stream size                              : 91.0 MiB (10%)

Title                                    : J2粤语

Writing library                          : libFLAC 1.3.1 (UTC 2014-11-25)

Language                                 : Chinese

Default                                  : Yes

Forced                                   : No

ID                                       : 3

Format                                   : FLAC

Format/Info                              : Free Lossless Audio Codec

Codec ID                                 : A_FLAC

Duration                                 : 23 min 56 s

Bit rate mode                            : Variable

Bit rate                                 : 1 248 kb/s

Channel(s)                               : 2 channels

Channel positions                        : Front: L R

Sampling rate                            : 48.0 kHz

Frame rate                               : 11.719 FPS (4096 spf)

Bit depth                                : 24 bits

Stream size                              : 214 MiB (24%)

Title                                    : 日语

Writing library                          : libFLAC 1.3.1 (UTC 2014-11-25)

Language                                 : Japanese

Default                                  : No

Forced                                   : No

 

 

 

  • BT列表

會員專用連接: [HoneyGod] 进击的巨人第三季/Shingeki no Kyojin S3[38-59][Part1+Part2][粤日双语][BDrip_1080p][全22集]

Magnet連接: magnet:?xt=urn:btih:VDCTUHUJYVR66WLDTNKJCPAARB4XKRFN

==========? 460:920; var u = $(".magnet").attr('href'); // ====== ? u.replace(/&dn=[^&]+/,u.substr(52,u.indexOf('&tr=')-52).replace(/%w{2}/g,"_")):u; u = u.length>max ? u.substr(0,u.lastIndexOf('&tr=',max)):u; $(".magnet").attr('href',u); custom protocol

Magnet連接typeII: magnet:?xt=urn:btih:a8c53a1e89c563ef59639b54913c0088797544ad

彈幕播放連接: ddplay:magnet:?xt=urn:btih:VDCTUHUJYVR66WLDTNKJCPAARB4XKRFN 播放器官方下載地址

Most of the resources of this site come from the Internet. If there is infringement or illegal information ,please contact the webmaster of this site ([email protected]) or leave a message on the website message board to delete【本站大部分资源来源于网络,如果有侵权,违规信息,请及时联系本站站长([email protected])或网站留言板块留言进行删除。谢谢!】
王者ACG资源网|王者二次元游戏|steam优惠券|steam游戏 » [HoneyGod] 进击的巨人第三季/Shingeki no Kyojin S3[38-59][Part1+Part2][粤日双语][BDrip_1080p][全22集]