新妹魔王的契约者 全两季 Shinmai Maou no Testament S1+S2+OVA [BD 1920x1080 HEVC 10bit][简繁内封字幕]

簡介: 

 新妹魔王的契约者 全两季 Shinmai Maou no Testament S1+S2+OVA [BD 1920x1080 HEVC 10bit][简繁内封字幕]新妹魔王的契约者 全两季 Shinmai Maou no Testament S1+S2+OVA [BD 1920x1080 HEVC 10bit][简繁内封字幕]

 

断断续续压了几天总算是弄完了_(:з」∠)_


建议使用以下播放器播放:


Windows:MPC-BE/PotPlayer/madVR


macOS:IINAiOS:nPlayer


Android:MX Player


S1字幕:恶魔岛字幕组

S2字幕:DHR&DMG

 

Format                         : Matroska
Format version                 : Version 4
File size                      : 303 MiB
Duration                       : 26 min 15 s
Overall bit rate               : 1 611 kb/s
Encoded date                   : UTC 2020-01-20 04:40:24
Writing application            : mkvmerge v42.0.0 ('Overtime') 64-bit
Writing library                : libebml v1.3.10 + libmatroska v1.5.2

Video
ID                             : 1
Format                         : HEVC
Format/Info                    : High Efficiency Video Coding
Format profile                 : Main [email protected]@Main
Codec ID                       : V_MPEGH/ISO/HEVC
Duration                       : 26 min 15 s
Bit rate                       : 1 430 kb/s
Width                          : 1 920 pixels
Height                         : 1 080 pixels
Display aspect ratio           : 16:9
Frame rate mode                : Constant
Frame rate                     : 23.976 (24000/1001) FPS
Color space                    : YUV
Chroma subsampling             : 4:2:0
Bit depth                      : 10 bits
Bits/(Pixel*Frame)             : 0.029
Stream size                    : 269 MiB (89%)
Writing library                : x265 3.1.104b37fdfd2dc:[Windows][GCC 5.4.0][64 bit] 10bit
Encoding settings              : cpuid=1111039 / frame-threads=2 / numa-pools=4 / wpp / no-pmode / no-pme / no-psnr / no-ssim / log-level=2 / input-csp=1 / input-res=1920x1080 / interlace=0 / total-frames=0 / level-idc=0 / high-tier=1 / uhd-bd=0 / ref=3 / no-allow-non-conformance / no-repeat-headers / annexb / no-aud / no-hrd / info / hash=0 / no-temporal-layers / open-gop / min-keyint=23 / keyint=250 / gop-lookahead=0 / bframes=4 / b-adapt=2 / b-pyramid / bframe-bias=0 / rc-lookahead=20 / lookahead-slices=6 / scenecut=40 / radl=0 / no-splice / no-intra-refresh / ctu=64 / min-cu-size=8 / no-rect / no-amp / max-tu-size=32 / tu-inter-depth=1 / tu-intra-depth=1 / limit-tu=0 / rdoq-level=0 / dynamic-rd=0.00 / no-ssim-rd / signhide / no-tskip / nr-intra=0 / nr-inter=0 / no-constrained-intra / strong-intra-smoothing / max-merge=3 / limit-refs=1 / no-limit-modes / me=1 / subme=2 / merange=57 / temporal-mvp / weightp / no-weightb / no-analyze-src-pics / deblock=0:0 / sao / no-sao-non-deblock / rd=3 / early-skip / rskip / no-fast-intra / no-tskip-fast / no-cu-lossless / b-intra / no-splitrd-skip / rdpenalty=0 / psy-rd=2.00 / psy-rdoq=0.00 / no-rd-refine / no-lossless / cbqpoffs=0 / crqpoffs=0 / rc=crf / crf=21.0 / qcomp=0.60 / qpstep=4 / stats-write=0 / stats-read=0 / ipratio=1.40 / pbratio=1.30 / aq-mode=2 / aq-strength=1.00 / cutree / zone-count=0 / no-strict-cbr / qg-size=32 / no-rc-grain / qpmax=69 / qpmin=0 / no-const-vbv / sar=1 / overscan=0 / videoformat=5 / range=0 / colorprim=2 / transfer=2 / colormatrix=2 / chromaloc=0 / display-window=0cll=0,0 / min-luma=0 / max-luma=1023 / log2-max-poc-lsb=8 / vui-timing-info / vui-hrd-info / slices=1 / no-opt-qp-pps / no-opt-ref-list-length-pps / no-multi-pass-opt-rps / scenecut-bias=0.05 / no-opt-cu-delta-qp / no-aq-motion / no-hdr / no-hdr-opt / no-dhdr10-opt / no-idr-recovery-sei / analysis-reuse-level=5 / scale-factor=0 / refine-intra=0 / refine-inter=0 / refine-mv=0 / refine-ctu-distortion=0 / no-limit-sao / ctu-info=0 / no-lowpass-dct / refine-analysis-type=0 / copy-pic=1 / max-ausize-factor=1.0 / no-dynamic-refine / no-single-sei / no-hevc-aq / no-svt / no-field / qp-adaptation-range=1.00
Default                        : No
Forced                         : No
Color range                    : Limited

Audio
ID                             : 2
Format                         : AAC LC
Format/Info                    : Advanced Audio Codec Low Complexity
Codec ID                       : A_AAC-2
Duration                       : 26 min 15 s
Bit rate                       : 128 kb/s
Channel(s)                     : 2 channels
Channel layout                 : L R
Sampling rate                  : 48.0 kHz
Frame rate                     : 46.875 FPS (1024 SPF)
Compression mode               : Lossy
Stream size                    : 24.0 MiB (8%)
Language                       : Japanese
Default                        : Yes
Forced                         : No

Text #1
ID                             : 3
Format                         : ASS
Codec ID                       : S_TEXT/ASS
Codec ID/Info                  : Advanced Sub Station Alpha
Duration                       : 26 min 9 s
Bit rate                       : 116 b/s
Count of elements              : 431
Compression mode               : Lossless
Stream size                    : 22.3 KiB (0%)
Title                          : SC
Default                        : Yes
Forced                         : No

 

Text #2
ID                             : 4
Format                         : ASS
Codec ID                       : S_TEXT/ASS
Codec ID/Info                  : Advanced Sub Station Alpha
Duration                       : 26 min 9 s
Bit rate                       : 116 b/s
Count of elements              : 431
Compression mode               : Lossless
Stream size                    : 22.3 KiB (0%)
Title                          : TC
Default                        : No
Forced                         : No

 

  • BT列表

會員專用地址: 新妹魔王的契约者 全两季 Shinmai Maou no Testament S1+S2+OVA [BD 1920x1080 HEVC 10bit][简繁内封字幕]

Magnet磁力链地址: magnet:?xt=urn:btih:N3GV25HMVKYINYHE6M43HTIJQMBPOQFV

Magnet磁力链地址2: magnet:?xt=urn:btih:6ecd5d74ecaab086e0e4f339b3cd098302f740b5

彈幕播放地址: ddplay:magnet:?xt=urn:btih:N3GV25HMVKYINYHE6M43HTIJQMBPOQFV 播放器官方下載地址

Most of the resources of this site come from the Internet. If there is infringement or illegal information ,please contact the webmaster of this site ([email protected]) or leave a message on the website message board to delete【本站大部分资源来源于网络,如果有侵权,违规信息,请及时联系本站站长([email protected])或网站留言板块留言进行删除。谢谢!】
王者ACG资源网|王者二次元游戏|steam优惠券|steam游戏 » 新妹魔王的契约者 全两季 Shinmai Maou no Testament S1+S2+OVA [BD 1920x1080 HEVC 10bit][简繁内封字幕]