[DDD] REDLINE 红线 / TAILENDERS 吊车尾 [BDrip 1080p HEVC FLAC][10bits]

簡介: 

虽然不是同一个社的作品,但因为是相似风格赛车片,印象非常深刻,所以放在一起发布了。

REDLINE 红线:因为原盘上下左右都有黑边,所以切掉后拉伸到1080p,并且,因为部分场景有肉眼可见的锯齿,所以额外加了AA。

TAILENDERS 吊车尾:因为这部没有见到BDMV放流,考虑了一下用Afro(唯一见到发布该片的压制者)的BDrip做了二压,收藏用的话,请自行衡量。

字幕分别来自百万飞机场和漫游,感谢原字幕制作。

General

Unique ID : 119612100773862172146452220453871200508 (0x59FC73E1783DC981D2EA536809B0A8FC)
Complete name : E:[DDD] REDLINE & TAILENDERS [BDrip 1080p HEVC FLAC][10bits]REDLINE.mkv
Format : Matroska
Format version : Version 4
File size : 8.54 GiB
Duration : 1 h 42 min
Overall bit rate mode : Variable
Overall bit rate : 12.0 Mb/s
Encoded date : UTC 2020-10-29 10:06:40
Writing application : mkvmerge v43.0.0 ('The Quartermaster') 64-bit
Writing library : libebml v1.3.10 + libmatroska v1.5.2

Video

ID : 1
Format : HEVC
Format/Info : High Efficiency Video Coding
Format profile : Main 10@L4@Main
Codec ID : V_MPEGH/ISO/HEVC
Duration : 1 h 42 min
Bit rate : 10.2 Mb/s
Width : 1 920 pixels
Height : 1 080 pixels
Display aspect ratio : 16:9
Frame rate mode : Constant
Frame rate : 23.976 (24000/1001) FPS
Color space : YUV
Chroma subsampling : 4:2:0
Bit depth : 10 bits
Bits/(Pixel*Frame) : 0.205
Stream size : 7.29 GiB (85%)
Writing library : x265 3.4g73f96ff39:[Windows][GCC 11.0.0][64 bit] 10bit
Encoding settings : cpuid=1111039 / frame-threads=3 / numa-pools=8 / wpp / no-pmode / no-pme / no-psnr / no-ssim / log-level=2 / input-csp=1 / input-res=1920x1080 / interlace=0 / total-frames=146928 / level-idc=0 / high-tier=1 / uhd-bd=0 / ref=4 / no-allow-non-conformance / no-repeat-headers / annexb / no-aud / no-hrd / info / hash=0 / no-temporal-layers / no-open-gop / min-keyint=23 / keyint=360 / gop-lookahead=0 / bframes=6 / b-adapt=2 / b-pyramid / bframe-bias=0 / rc-lookahead=60 / lookahead-slices=6 / scenecut=40 / hist-scenecut=0 / radl=0 / no-splice / no-intra-refresh / ctu=32 / min-cu-size=8 / no-rect / no-amp / max-tu-size=32 / tu-inter-depth=2 / tu-intra-depth=2 / limit-tu=0 / rdoq-level=2 / dynamic-rd=0.00 / no-ssim-rd / signhide / no-tskip / nr-intra=0 / nr-inter=0 / no-constrained-intra / no-strong-intra-smoothing / max-merge=3 / limit-refs=1 / no-limit-modes / me=3 / subme=5 / merange=48 / temporal-mvp / no-frame-dup / no-hme / weightp / weightb / no-analyze-src-pics / deblock=-1:-1 / no-sao / no-sao-non-deblock / rd=4 / selective-sao=0 / no-early-skip / rskip / no-fast-intra / no-tskip-fast / no-cu-lossless / b-intra / no-splitrd-skip / rdpenalty=0 / psy-rd=2.00 / psy-rdoq=3.00 / no-rd-refine / no-lossless / cbqpoffs=-2 / crqpoffs=-2 / rc=crf / crf=17.0 / qcomp=0.65 / qpstep=4 / stats-write=0 / stats-read=0 / ipratio=1.40 / pbratio=1.20 / aq-mode=2 / aq-strength=0.90 / cutree / zone-count=0 / no-strict-cbr / qg-size=32 / no-rc-grain / qpmax=69 / qpmin=0 / no-const-vbv / sar=0 / overscan=0 / videoformat=5 / range=0 / colorprim=2 / transfer=2 / colormatrix=2 / chromaloc=0 / display-window=0 / cll=0,0 / min-luma=0 / max-luma=1023 / log2-max-poc-lsb=8 / vui-timing-info / vui-hrd-info / slices=1 / no-opt-qp-pps / no-opt-ref-list-length-pps / no-multi-pass-opt-rps / scenecut-bias=0.05 / hist-threshold=0.01 / no-opt-cu-delta-qp / no-aq-motion / no-hdr10 / no-hdr10-opt / no-dhdr10-opt / no-idr-recovery-sei / analysis-reuse-level=0 / analysis-save-reuse-level=0 / analysis-load-reuse-level=0 / scale-factor=0 / refine-intra=0 / refine-inter=0 / refine-mv=1 / refine-ctu-distortion=0 / no-limit-sao / ctu-info=0 / no-lowpass-dct / refine-analysis-type=0 / copy-pic=1 / max-ausize-factor=1.0 / no-dynamic-refine / no-single-sei / no-hevc-aq / no-svt / no-field / qp-adaptation-range=1.00 / no-scenecut-aware-qpconformance-window-offsets / right=0 / bottom=0 / decoder-max-rate=0
Default : Yes
Forced : No

Audio

ID : 2
Format : FLAC
Format/Info : Free Lossless Audio Codec
Codec ID : A_FLAC
Duration : 1 h 42 min
Bit rate mode : Variable
Bit rate : 1 751 kb/s
Channel(s) : 6 channels
Channel layout : L R C LFE Ls Rs
Sampling rate : 48.0 kHz
Frame rate : 11.719 FPS (4096 SPF)
Bit depth : 16 bits
Compression mode : Lossless
Stream size : 1.25 GiB (15%)
Writing library : libFLAC 1.3.3 (UTC 2019-08-04)
Default : Yes
Forced : No

Menu

00:00:00.000 : :Producer
00:00:30.614 : :Avant 1
00:02:41.244 : :Avant 2
00:06:12.747 : :Avant 3
00:09:49.756 : :Avant 4
00:12:22.367 : :Opening
00:14:06.054 : :Chapter 01
00:16:24.275 : :Chapter 02
00:19:28.000 : :Chapter 03
00:22:11.288 : :Chapter 04
00:24:46.068 : :Chapter 05
00:29:25.055 : :Chapter 06
00:35:31.463 : :Chapter 07
00:38:32.852 : :Chapter 08
00:40:39.103 : :Chapter 09
00:43:45.081 : :Chapter 10
00:46:12.436 : :Chapter 11
00:49:31.260 : :Chapter 12
00:54:52.039 : :Chapter 13
00:58:21.915 : :Chapter 14
01:03:46.698 : :Chapter 15
01:07:41.140 : :Chapter 16
01:11:42.048 : :Chapter 17
01:15:31.902 : :Chapter 18
01:19:26.845 : :Chapter 19
01:21:20.793 : :Chapter 20
01:22:55.262 : :Chapter 21
01:28:07.866 : :Chapter 22
01:30:32.886 : :Chapter 23
01:33:25.350 : :Chapter 24
01:37:12.285 : :Ending

General

Unique ID : 316626083645433670135528089899309370081 (0xEE33F72F60C00048C1D71C19AF4A8AE1)
Complete name : E:[DDD] REDLINE & TAILENDERS [BDrip 1080p HEVC FLAC][10bits]TAILENDERS.mkv
Format : Matroska
Format version : Version 4
File size : 1.62 GiB
Duration : 27 min 36 s
Overall bit rate mode : Variable
Overall bit rate : 8 393 kb/s
Encoded date : UTC 2020-10-28 08:10:37
Writing application : mkvmerge v43.0.0 ('The Quartermaster') 64-bit
Writing library : libebml v1.3.10 + libmatroska v1.5.2

Video

ID : 1
Format : HEVC
Format/Info : High Efficiency Video Coding
Format profile : Main 10@L4@Main
Codec ID : V_MPEGH/ISO/HEVC
Duration : 27 min 36 s
Bit rate : 6 625 kb/s
Width : 1 920 pixels
Height : 1 080 pixels
Display aspect ratio : 16:9
Frame rate mode : Constant
Frame rate : 23.976 (24000/1001) FPS
Color space : YUV
Chroma subsampling : 4:2:0
Bit depth : 10 bits
Bits/(Pixel*Frame) : 0.133
Stream size : 1.28 GiB (79%)
Writing library : x265 3.4g73f96ff39:[Windows][GCC 11.0.0][64 bit] 10bit
Encoding settings : cpuid=1111039 / frame-threads=3 / numa-pools=8 / wpp / no-pmode / no-pme / no-psnr / no-ssim / log-level=2 / input-csp=1 / input-res=1920x1080 / interlace=0 / total-frames=39721 / level-idc=0 / high-tier=1 / uhd-bd=0 / ref=4 / no-allow-non-conformance / no-repeat-headers / annexb / no-aud / no-hrd / info / hash=0 / no-temporal-layers / no-open-gop / min-keyint=23 / keyint=360 / gop-lookahead=0 / bframes=6 / b-adapt=2 / b-pyramid / bframe-bias=0 / rc-lookahead=60 / lookahead-slices=6 / scenecut=40 / hist-scenecut=0 / radl=0 / no-splice / no-intra-refresh / ctu=32 / min-cu-size=8 / no-rect / no-amp / max-tu-size=32 / tu-inter-depth=2 / tu-intra-depth=2 / limit-tu=0 / rdoq-level=2 / dynamic-rd=0.00 / no-ssim-rd / signhide / no-tskip / nr-intra=0 / nr-inter=0 / no-constrained-intra / no-strong-intra-smoothing / max-merge=3 / limit-refs=1 / no-limit-modes / me=3 / subme=5 / merange=48 / temporal-mvp / no-frame-dup / no-hme / weightp / weightb / no-analyze-src-pics / deblock=-1:-1 / no-sao / no-sao-non-deblock / rd=4 / selective-sao=0 / no-early-skip / rskip / no-fast-intra / no-tskip-fast / no-cu-lossless / b-intra / no-splitrd-skip / rdpenalty=0 / psy-rd=2.00 / psy-rdoq=3.00 / no-rd-refine / no-lossless / cbqpoffs=-2 / crqpoffs=-2 / rc=crf / crf=18.0 / qcomp=0.65 / qpstep=4 / stats-write=0 / stats-read=0 / ipratio=1.40 / pbratio=1.20 / aq-mode=2 / aq-strength=0.90 / cutree / zone-count=0 / no-strict-cbr / qg-size=32 / no-rc-grain / qpmax=69 / qpmin=0 / no-const-vbv / sar=0 / overscan=0 / videoformat=5 / range=0 / colorprim=2 / transfer=2 / colormatrix=1 / chromaloc=0 / display-window=0 / cll=0,0 / min-luma=0 / max-luma=1023 / log2-max-poc-lsb=8 / vui-timing-info / vui-hrd-info / slices=1 / no-opt-qp-pps / no-opt-ref-list-length-pps / no-multi-pass-opt-rps / scenecut-bias=0.05 / hist-threshold=0.01 / no-opt-cu-delta-qp / no-aq-motion / no-hdr10 / no-hdr10-opt / no-dhdr10-opt / no-idr-recovery-sei / analysis-reuse-level=0 / analysis-save-reuse-level=0 / analysis-load-reuse-level=0 / scale-factor=0 / refine-intra=0 / refine-inter=0 / refine-mv=1 / refine-ctu-distortion=0 / no-limit-sao / ctu-info=0 / no-lowpass-dct / refine-analysis-type=0 / copy-pic=1 / max-ausize-factor=1.0 / no-dynamic-refine / no-single-sei / no-hevc-aq / no-svt / no-field / qp-adaptation-range=1.00 / no-scenecut-aware-qpconformance-window-offsets / right=0 / bottom=0 / decoder-max-rate=0
Default : Yes
Forced : No
Color range : Limited
Matrix coefficients : BT.709

Audio

ID : 2
Format : FLAC
Format/Info : Free Lossless Audio Codec
Codec ID : A_FLAC
Duration : 27 min 36 s
Bit rate mode : Variable
Bit rate : 1 767 kb/s
Channel(s) : 6 channels
Channel layout : L R C LFE Ls Rs
Sampling rate : 48.0 kHz
Frame rate : 11.719 FPS (4096 SPF)
Bit depth : 16 bits
Compression mode : Lossless
Stream size : 349 MiB (21%)
Writing library : libFLAC 1.3.3 (UTC 2019-08-04)
Default : Yes
Forced : No

Menu

00:00:00.000 : :Chapter 1
00:03:33.212 : :Chapter 2
00:06:45.404 : :Chapter 3
00:11:59.218 : :Chapter 4
00:14:48.137 : :Chapter 5
00:18:55.843 : :Chapter 6
00:24:09.448 : :Chapter 7
00:26:07.565 : :Chapter 8
00:27:35.695 : :Ending

 

  • BT列表

會員專用地址: [DDD] REDLINE 红线 / TAILENDERS 吊车尾 [BDrip 1080p HEVC FLAC][10bits]

Magnet磁力链地址: magnet:?xt=urm:atih:3XTBUFWLG7AXGIRU5IDUUZKG6JGMKSOX

Magnet磁力链地址2: magnet:?xt=urm:atih:dde61a16cb37c1732234ea074a6546f24cc549d7

彈幕播放地址: ddplay:magnet:?xt=urm:atih:3XTBUFWLG7AXGIRU5IDUUZKG6JGMKSOX 播放器官方下載地址

投诉建议:电脑端请在网页右侧留言板留言,手机端网页请下拉至网页底部的留言板留言,站长会尽快处理联系! 想白嫖的:注册—签到,2积分,可下载1个游戏
王者ACG资源网|王者二次元游戏|steam优惠券|steam游戏 » [DDD] REDLINE 红线 / TAILENDERS 吊车尾 [BDrip 1080p HEVC FLAC][10bits]