天空战记 / 天空戦記シュラト / Tenkuu Senki Shurato JPN DVD Remux TV + OVA + SP

簡介: 

天空战记 / 天空戦記シュラト / Tenkuu Senki Shurato JPN DVD Remux TV + OVA + SP

 

 

General
Unique ID                      : 288955092869017524924628864485337099132 (0xD962BA020FDEEA4E50834962F9D06B7C)
Complete name                  : Tenkuu Senki Shurato - 01.mkv
Format                         : Matroska
Format version                 : Version 4
File size                      : 1.22 GiB
Duration                       : 24 min 22 s
Overall bit rate mode          : Variable
Overall bit rate               : 7 155 kb/s
Encoded date                   : UTC 2020-01-01 00:00:00
Writing application            : mkvmerge v40.0.0 ('Old Town Road + Pony') 64-bit
Writing library                : libebml v1.3.9 + libmatroska v1.5.2

Video
ID                             : 1
Format                         : MPEG Video
Format version                 : Version 2
Format profile                 : Main@Main
Format settings                : CustomMatrix / BVOP
Format settings, BVOP          : Yes
Format settings, Matrix        : Custom
Format settings, GOP           : M=3, N=12
Codec ID                       : V_MPEG2
Codec ID/Info                  : MPEG 1 or 2 Video
Duration                       : 24 min 22 s
Bit rate mode                  : Variable
Bit rate                       : 6 768 kb/s
Maximum bit rate               : 9 800 kb/s
Width                          : 720 pixels
Height                         : 480 pixels
Display aspect ratio           : 4:3
Frame rate mode                : Variable
Frame rate                     : 24.000 FPS
Original frame rate            : 29.970 (30000/1001) FPS
Color space                    : YUV
Chroma subsampling             : 4:2:0
Bit depth                      : 8 bits
Compression mode               : Lossy
Bits/(Pixel*Frame)             : 0.816
Stream size                    : 1.15 GiB (95%)
Default                        : Yes
Forced                         : No

Audio
ID                             : 2
Format                         : AC-3
Format/Info                    : Audio Coding 3
Commercial name                : Dolby Digital
Codec ID                       : A_AC3
Duration                       : 24 min 22 s
Bit rate mode                  : Constant
Bit rate                       : 384 kb/s
Channel(s)                     : 2 channels
Channel layout                 : L R
Sampling rate                  : 48.0 kHz
Frame rate                     : 31.250 FPS (1536 SPF)
Bit depth                      : 16 bits
Compression mode               : Lossy
Stream size                    : 67.0 MiB (5%)
Language                       : Japanese
Service kind                   : Complete Main
Default                        : Yes
Forced                         : No

Menu
00:00:00.000                   : en:Chapter 01
00:01:30.090                   : en:Chapter 02
00:02:53.907                   : en:Chapter 03
00:12:15.768                   : en:Chapter 04
00:22:51.903                   : en:Chapter 05
00:23:51.930                   : en:Chapter 06

  • BT列表

會員專用地址: 天空战记 / 天空戦記シュラト / Tenkuu Senki Shurato JPN DVD Remux TV + OVA + SP

Magnet磁力链地址: magnet:?xt=urn:btih:D26S7VUWT63VQW46HHT2ODZP7QKE5UW6

Magnet磁力链地址2: magnet:?xt=urn:btih:1ebd2fd6969fb7585b9e39e7a70f2ffc144ed2de

彈幕播放地址: ddplay:magnet:?xt=urn:btih:D26S7VUWT63VQW46HHT2ODZP7QKE5UW6 播放器官方下載地址

Most of the resources of this site come from the Internet. If there is infringement or illegal information ,please contact the webmaster of this site (zgacg@hotmail.com) or leave a message on the website message board to delete【本站大部分资源来源于网络,如果有侵权,违规信息,请及时联系本站站长(zgacg@hotmail.com)或网站留言板块留言进行删除。谢谢!】
王者ACG资源网|王者二次元游戏|steam优惠券|steam游戏 » 天空战记 / 天空戦記シュラト / Tenkuu Senki Shurato JPN DVD Remux TV + OVA + SP