魔卡少女樱 / カードキャプターさくら / Cardcaptor Sakura 1998 [BD 1440x1080 HEVC FLAC] - LittleBakas!

簡介: 

魔卡少女樱 / カードキャプターさくら / Cardcaptor Sakura 1998 [BD 1440x1080 HEVC FLAC] - LittleBakas!

 

魔卡少女樱 / カードキャプターさくら / Cardcaptor Sakura 1998 [BD 1440x1080 HEVC FLAC] - LittleBakas!

 

魔卡少女樱 / カードキャプターさくら / Cardcaptor Sakura 1998 [BD 1440x1080 HEVC FLAC] - LittleBakas!

 

魔卡少女樱 / カードキャプターさくら / Cardcaptor Sakura 1998 [BD 1440x1080 HEVC FLAC] - LittleBakas!

 

 

我不是作者,只是转载者……

电视剧集01-70,包含标题的章节:https://assrt.net/xml/sub/627/627075.xml

 

中文字幕:http://bbs.vcb-s.com

 

NCOP1 v2

Video: 1440x1080, x265-10bit, YUV 4:4:4
PP: anti-aliasing, fix chroma shift, restoration, de-banding

 

 

General
Unique ID                      : 131028253537594475602669476128483798165 (0x62931FAB1F84D050D1897F8515E96C95)
Complete name                  : Cardcaptor Sakura 1998 - EP01 [BD 1440x1080 HEVC-yuv444p10 FLACx2 AC3 Chap] - LittleBakas!.mkv
Format                         : Matroska
Format version                 : Version 4
File size                      : 1.44 GiB
Duration                       : 25 min 0 s
Overall bit rate mode          : Variable
Overall bit rate               : 8 230 kb/s
Encoded date                   : UTC 2018-04-04 14:28:24
Writing application            : mkvmerge v21.0.0 ('Tardigrades Will Inherit The Earth') 64-bit
Writing library                : libebml v1.3.5 + libmatroska v1.4.8
Attachments                    : LittleBakas!

Video
ID                             : 1
Format                         : HEVC
Format/Info                    : High Efficiency Video Coding
Format profile                 : Format Range@L4@Main
Codec ID                       : V_MPEGH/ISO/HEVC
Duration                       : 25 min 0 s
Bit rate                       : 5 811 kb/s
Width                          : 1 440 pixels
Height                         : 1 080 pixels
Display aspect ratio           : 4:3
Frame rate mode                : Constant
Frame rate                     : 23.976 (24000/1001) FPS
Color space                    : YUV
Chroma subsampling             : 4:4:4
Bit depth                      : 10 bits
Bits/(Pixel*Frame)             : 0.156
Stream size                    : 1.01 GiB (71%)
Writing library                : x265 2.72aa737a99f51:[Windows][MSVC 1900][64 bit] 10bit
Encoding settings              : cpuid=1173503 / frame-threads=3 / numa-pools=12 / wpp / no-pmode / no-pme / no-psnr / ssim / log-level=2 / csv / csv-log-level=2 / input-csp=3 / input-res=1440x1080 / interlace=0 / total-frames=0 / level-idc=0 / high-tier=1 / uhd-bd=0 / ref=4 / no-allow-non-conformance / no-repeat-headers / annexb / no-aud / no-hrd / info / hash=0 / no-temporal-layers / no-open-gop / min-keyint=1 / keyint=720 / gop-lookahead=0 / bframes=8 / b-adapt=2 / b-pyramid / bframe-bias=0 / rc-lookahead=60 / lookahead-slices=1 / scenecut=40 / radl=0 / no-intra-refresh / ctu=32 / min-cu-size=8 / no-rect / no-amp / max-tu-size=32 / tu-inter-depth=2 / tu-intra-depth=2 / limit-tu=4 / rdoq-level=2 / dynamic-rd=0.00 / ssim-rd / signhide / no-tskip / nr-intra=0 / nr-inter=0 / no-constrained-intra / no-strong-intra-smoothing / max-merge=3 / limit-refs=2 / limit-modes / me=3 / subme=3 / merange=52 / temporal-mvp / weightp / weightb / no-analyze-src-pics / deblock=0:0 / no-sao / no-sao-non-deblock / rd=4 / no-early-skip / rskip / no-fast-intra / no-tskip-fast / no-cu-lossless / b-intra / no-splitrd-skip / rdpenalty=2 / psy-rd=1.00 / psy-rdoq=0.00 / no-rd-refine / no-lossless / cbqpoffs=4 / crqpoffs=4 / rc=crf / crf=17.0 / qcomp=0.75 / qpstep=1 / stats-write=0 / stats-read=0 / ipratio=1.20 / pbratio=1.00 / aq-mode=1 / aq-strength=0.80 / cutree / zone-count=0 / no-strict-cbr / qg-size=8 / no-rc-grain / qpmax=69 / qpmin=0 / no-const-vbv / sar=0 / overscan=0 / videoformat=5 / range=0 / colorprim=1 / transfer=1 / colormatrix=1 / chromaloc=0 / display-window=0 / max-cll=0,0 / min-luma=0 / max-luma=1023 / log2-max-poc-lsb=8 / vui-timing-info / vui-hrd-info / slices=1 / no-opt-qp-pps / no-opt-ref-list-length-pps / no-multi-pass-opt-rps / scenecut-bias=0.05 / no-opt-cu-delta-qp / no-aq-motion / no-hdr / no-hdr-opt / no-dhdr10-opt / analysis-reuse-level=5 / scale-factor=0 / refine-intra=0 / refine-inter=0 / refine-mv=0 / no-limit-sao / ctu-info=0 / no-lowpass-dct / refine-mv-type=0 / copy-pic=1
Language                       : Japanese
Default                        : Yes
Forced                         : No
Color range                    : Limited
Color primaries                : BT.709
Transfer characteristics       : BT.709
Matrix coefficients            : BT.709

Audio #1
ID                             : 2
Format                         : FLAC
Format/Info                    : Free Lossless Audio Codec
Codec ID                       : A_FLAC
Duration                       : 25 min 0 s
Bit rate mode                  : Variable
Bit rate                       : 1 579 kb/s
Channel(s)                     : 6 channels
Channel layout                 : L R C LFE Ls Rs
Sampling rate                  : 48.0 kHz
Frame rate                     : 11.719 FPS (4096 SPF)
Bit depth                      : 16 bits
Compression mode               : Lossless
Stream size                    : 282 MiB (19%)
Title                          : Main 5.1
Writing library                : libFLAC 1.3.2 (UTC 2017-01-01)
Language                       : Japanese
Default                        : Yes
Forced                         : No

Audio #2
ID                             : 3
Format                         : FLAC
Format/Info                    : Free Lossless Audio Codec
Codec ID                       : A_FLAC
Duration                       : 25 min 0 s
Bit rate mode                  : Variable
Bit rate                       : 641 kb/s
Channel(s)                     : 2 channels
Channel layout                 : L R
Sampling rate                  : 48.0 kHz
Frame rate                     : 11.719 FPS (4096 SPF)
Bit depth                      : 16 bits
Compression mode               : Lossless
Stream size                    : 115 MiB (8%)
Title                          : Main 2.0
Writing library                : libFLAC 1.3.2 (UTC 2017-01-01)
Language                       : Japanese
Default                        : No
Forced                         : No

Audio #3
ID                             : 4
Format                         : AC-3
Format/Info                    : Audio Coding 3
Commercial name                : Dolby Digital
Codec ID                       : A_AC3
Duration                       : 25 min 0 s
Bit rate mode                  : Constant
Bit rate                       : 192 kb/s
Channel(s)                     : 2 channels
Channel layout                 : L R
Sampling rate                  : 48.0 kHz
Frame rate                     : 31.250 FPS (1536 SPF)
Bit depth                      : 16 bits
Compression mode               : Lossy
Stream size                    : 34.3 MiB (2%)
Title                          : Audio Commentary
Language                       : Japanese
Service kind                   : Complete Main
Default                        : No
Forced                         : No

Menu
00:00:00.000                   : en:Opening
00:01:20.038                   : en:A Part
00:10:04.270                   : en:B Part
00:22:15.000                   : en:Ending
00:23:25.029                   : en:ケロちゃんにおまかせ!
00:24:31.011                   : en:Next

  • BT列表

會員專用地址: 魔卡少女樱 / カードキャプターさくら / Cardcaptor Sakura 1998 [BD 1440x1080 HEVC FLAC] - LittleBakas!

Magnet磁力链地址: magnet:?xt=urn:btih:3UHTL3LR4REG4O6GG3ELVFSPYG5HCIFL

Magnet磁力链地址2: magnet:?xt=urn:btih:dd0f35ed71e4486e3bc636c8ba964fc1ba7120ab

彈幕播放地址: ddplay:magnet:?xt=urn:btih:3UHTL3LR4REG4O6GG3ELVFSPYG5HCIFL 播放器官方下載地址

Most of the resources of this site come from the Internet. If there is infringement or illegal information ,please contact the webmaster of this site (zgacg@hotmail.com) or leave a message on the website message board to delete【本站大部分资源来源于网络,如果有侵权,违规信息,请及时联系本站站长(zgacg@hotmail.com)或网站留言板块留言进行删除。谢谢!】
王者ACG资源网|王者二次元游戏|steam优惠券|steam游戏 » 魔卡少女樱 / カードキャプターさくら / Cardcaptor Sakura 1998 [BD 1440x1080 HEVC FLAC] - LittleBakas!