[卡通空间] 死神 / Bleach TV 001-183 DVDRip x264 AAC 日语 简繁中字

簡介: 

[卡通空间] 死神 / Bleach TV 001-183 DVDRip x264 AAC 日语 简繁中字

 

[卡通空间] 死神 / Bleach TV 001-183 DVDRip x264 AAC 日语 简繁中字

 

[卡通空间] 死神 / Bleach TV 001-183 DVDRip x264 AAC 日语 简繁中字

 

[卡通空间] 死神 / Bleach TV 001-183 DVDRip x264 AAC 日语 简繁中字

 

[卡通空间] 死神 / Bleach TV 001-183 DVDRip x264 AAC 日语 简繁中字

 

 

卡通空间 DVDRip 480p TV 001-183

语言和字幕
001-077:内封日语、简体中文、繁体中文
078-183:内封日语、简体中文

视频尺寸
001-167:640x480
168-183:848x480

内容更新
130 v2

转载来源:
https://share.dmhy.org/topics/view/150945_BLEACH_001-221_mkv_avi_HTTP.html
https://share.dmhy.org/topics/view/156049_BLEACH_DVDRIP_139-183.html

备注:剩下的集数,明天分享卡通空间和猪猪字幕组的TVRip。

 

BT下载上传软件:https://github.com/c0re100/qBittorrent-Enhanced-Edition/releases

 

 

General
Unique ID                      : 78156537907261357589661363312230853269 (0x3ACC66D3E12060A08D239A1CA032EA95)
Complete name                  : [KTKJ][BLEACH][DVDRIP][001][CHN_BIG5][XVID_BF][1F5269C8].mkv
Format                         : Matroska
Format version                 : Version 1
File size                      : 217 MiB
Duration                       : 22 min 50 s
Overall bit rate mode          : Variable
Overall bit rate               : 1 331 kb/s
Encoded date                   : UTC 2005-03-08 03:55:48
Writing application            : mkvmerge v1.0 ('Soul Food To Go') built on Nov 17 2004 15:06:35
Writing library                : libebml v0.7.3 + libmatroska v0.7.4

Video
ID                             : 1
Format                         : MPEG-4 Visual
Format profile                 : Simple@L3
Format settings                : BVOP2
Format settings, BVOP          : 2
Format settings, QPel          : No
Format settings, GMC           : No warppoints
Format settings, Matrix        : Default (H.263)
Muxing mode                    : Packed bitstream
Codec ID                       : V_MS/VFW/FOURCC / XVID
Codec ID/Hint                  : XviD
Duration                       : 22 min 50 s
Bit rate                       : 1 092 kb/s
Width                          : 640 pixels
Height                         : 480 pixels
Display aspect ratio           : 4:3
Frame rate mode                : Constant
Frame rate                     : 23.976 (23976/1000) FPS
Color space                    : YUV
Chroma subsampling             : 4:2:0
Bit depth                      : 8 bits
Scan type                      : Progressive
Compression mode               : Lossy
Bits/(Pixel*Frame)             : 0.148
Stream size                    : 178 MiB (82%)
Writing library                : XviD 1.1.0 Beta1 (UTC 2005-01-16)
Default                        : Yes
Forced                         : No

Audio
ID                             : 2
Format                         : MPEG Audio
Format version                 : Version 1
Format profile                 : Layer 3
Codec ID                       : A_MPEG/L3
Codec ID/Hint                  : MP3
Duration                       : 22 min 50 s
Bit rate mode                  : Variable
Bit rate                       : 213 kb/s
Channel(s)                     : 2 channels
Sampling rate                  : 48.0 kHz
Frame rate                     : 41.667 FPS (1152 SPF)
Compression mode               : Lossy
Stream size                    : 34.8 MiB (16%)
Writing library                : LAME3.92
Encoding settings              : -m s -V 0 -q 0 -lowpass 20.4 --vbr-old
Default                        : Yes
Forced                         : No

Text #1
ID                             : 3
Format                         : ASS
Codec ID                       : S_TEXT/ASS
Codec ID/Info                  : Advanced Sub Station Alpha
Compression mode               : Lossless
Title                          : CHINESE_GB
Default                        : Yes
Forced                         : No

Text #2
ID                             : 4
Format                         : ASS
Codec ID                       : S_TEXT/ASS
Codec ID/Info                  : Advanced Sub Station Alpha
Compression mode               : Lossless
Title                          : CHINESE_BIG5
Default                        : No
Forced                         : No

  • BT列表

會員專用地址: [卡通空间] 死神 / Bleach TV 001-183 DVDRip x264 AAC 日语 简繁中字

Magnet磁力链地址: magnet:?xt=urm:atih:7YRX3DKYOXEF2ZKNRB4JRVKM4QBWEMGS

Magnet磁力链地址2: magnet:?xt=urm:atih:fe237d8d5875c85d654d887898d54ce4036230d2

彈幕播放地址: ddplay:magnet:?xt=urm:atih:7YRX3DKYOXEF2ZKNRB4JRVKM4QBWEMGS 播放器官方下載地址

投诉建议:电脑端请在网页右侧留言板留言,手机端网页请下拉至网页底部的留言板留言,站长会尽快处理联系! 想白嫖的:注册—签到,2积分,可下载1个游戏
王者ACG资源网|王者二次元游戏|steam优惠券|steam游戏 » [卡通空间] 死神 / Bleach TV 001-183 DVDRip x264 AAC 日语 简繁中字