[DDD] CONCRETE REVOLUTIO:超人幻想 [BDrip 720p HEVC AAC][10bits]

簡介: 

混凝土森林中由超人基因引起而掀起的一场革命,这部片算是近些年的硬核片中个人最喜欢的一部,追番补番共看了三遍,过年中补第三遍,每一集都能让我极其入境,感触颇深。(真情实感)

这次重新batch是基于前年宝石之国之前压制的一部分番的洗版,那之后一直沿用spline resize滤镜至今,另外包括升级一下压制参数,用ffmpeg封装取代mp4box以修正在全职猎人之前的封装问题给vlc内核带来的播放困难。(业余压制者的鬼扯)

字幕包:天香x漫游tv自调,感谢原字幕组。

祝大家身体健康,天气好到人少的地方散散步,呼吸呼吸新鲜空气,回味一下超幻。

General

Complete name : D:[DDD] CONCRETE REVOLUTIO:超人幻想 [BDrip HEVC AAC][10bits]コンクリート·レボルティオ~超人幻想~ 第01話 「東京の魔女」.mp4
Format : MPEG-4
Format profile : Base Media
Codec ID : isom (isom)
File size : 499 MiB
Duration : 24 min 13 s
Overall bit rate mode : Variable
Overall bit rate : 2 879 kb/s
Encoded date : UTC 2020-01-20 12:24:40
Tagged date : UTC 2020-01-20 12:24:40

Video

ID : 1
Format : HEVC
Format/Info : High Efficiency Video Coding
Format profile : Main 10@L4@Main
Codec ID : hev1
Codec ID/Info : High Efficiency Video Coding
Duration : 24 min 13 s
Bit rate : 2 652 kb/s
Maximum bit rate : 19.8 Mb/s
Width : 1 280 pixels
Height : 720 pixels
Display aspect ratio : 16:9
Frame rate mode : Variable
Frame rate : 23.976 (24000/1001) FPS
Minimum frame rate : 23.564 FPS
Maximum frame rate : 24.390 FPS
Color space : YUV
Chroma subsampling : 4:2:0
Bit depth : 10 bits
Bits/(Pixel*Frame) : 0.120
Stream size : 459 MiB (92%)
Writing library : x265 3.2971180b100f8:[Windows][GCC 9.2.0][64 bit] 10bit
Encoding settings : cpuid=1111039 / frame-threads=3 / numa-pools=8 / wpp / no-pmode / no-pme / no-psnr / no-ssim / log-level=2 / input-csp=1 / input-res=1280x720 / interlace=0 / total-frames=34840 / level-idc=0 / high-tier=1 / uhd-bd=0 / ref=6 / no-allow-non-conformance / no-repeat-headers / annexb / no-aud / no-hrd / info / hash=0 / no-temporal-layers / no-open-gop / min-keyint=23 / keyint=360 / gop-lookahead=0 / bframes=6 / b-adapt=2 / b-pyramid / bframe-bias=0 / rc-lookahead=40 / lookahead-slices=4 / scenecut=40 / radl=0 / no-splice / no-intra-refresh / ctu=32 / min-cu-size=8 / no-rect / no-amp / max-tu-size=32 / tu-inter-depth=2 / tu-intra-depth=2 / limit-tu=0 / rdoq-level=2 / dynamic-rd=0.00 / no-ssim-rd / signhide / no-tskip / nr-intra=0 / nr-inter=0 / no-constrained-intra / no-strong-intra-smoothing / max-merge=3 / limit-refs=1 / no-limit-modes / me=3 / subme=7 / merange=48 / temporal-mvp / no-frame-dup / no-hme / weightp / weightb / no-analyze-src-pics / deblock=0:0 / sao / no-sao-non-deblock / rd=5 / selective-sao=4 / early-skip / no-rskip / no-fast-intra / no-tskip-fast / no-cu-lossless / b-intra / no-splitrd-skip / rdpenalty=0 / psy-rd=2.00 / psy-rdoq=3.00 / no-rd-refine / no-lossless / cbqpoffs=0 / crqpoffs=0 / rc=crf / crf=17.0 / qcomp=0.70 / qpstep=4 / stats-write=0 / stats-read=0 / ipratio=1.40 / pbratio=1.30 / aq-mode=2 / aq-strength=1.00 / cutree / zone-count=0 / no-strict-cbr / qg-size=32 / no-rc-grain / qpmax=69 / qpmin=0 / no-const-vbv / sar=0 / overscan=0 / videoformat=5 / range=0 / colorprim=1 / transfer=1 / colormatrix=1 / chromaloc=0 / display-window=0 / cll=0,0 / min-luma=0 / max-luma=1023 / log2-max-poc-lsb=8 / vui-timing-info / vui-hrd-info / slices=1 / no-opt-qp-pps / no-opt-ref-list-length-pps / no-multi-pass-opt-rps / scenecut-bias=0.05 / no-opt-cu-delta-qp / no-aq-motion / no-hdr / no-hdr-opt / no-dhdr10-opt / no-idr-recovery-sei / analysis-reuse-level=5 / scale-factor=0 / refine-intra=0 / refine-inter=0 / refine-mv=1 / refine-ctu-distortion=0 / no-limit-sao / ctu-info=0 / no-lowpass-dct / refine-analysis-type=0 / copy-pic=1 / max-ausize-factor=1.0 / no-dynamic-refine / no-single-sei / no-hevc-aq / no-svt / no-field / qp-adaptation-range=1.00
Tagged date : UTC 2020-01-20 12:24:49
Color range : Limited
Color primaries : BT.709
Transfer characteristics : BT.709
Matrix coefficients : BT.709
Codec configuration box : hvcC

Audio

ID : 2
Format : AAC LC
Format/Info : Advanced Audio Codec Low Complexity
Codec ID : mp4a-40-2
Duration : 24 min 13 s
Bit rate mode : Variable
Bit rate : 222 kb/s
Maximum bit rate : 308 kb/s
Channel(s) : 2 channels
Channel layout : L R
Sampling rate : 48.0 kHz
Frame rate : 46.875 FPS (1024 SPF)
Compression mode : Lossy
Stream size : 38.4 MiB (8%)
Encoded date : UTC 2020-01-17 03:53:57
Tagged date : UTC 2020-01-20 12:24:49

 

  • BT列表

會員專用地址: [DDD] CONCRETE REVOLUTIO:超人幻想 [BDrip 720p HEVC AAC][10bits]

Magnet磁力链地址: magnet:?xt=urn:btih:F7AP6KVIDL5YP34EFMA5ISL3RLYEZU66

Magnet磁力链地址2: magnet:?xt=urn:btih:2fc0ff2aa81afb87ef842b01d4497b8af04cd3de

彈幕播放地址: ddplay:magnet:?xt=urn:btih:F7AP6KVIDL5YP34EFMA5ISL3RLYEZU66 播放器官方下載地址

Most of the resources of this site come from the Internet. If there is infringement or illegal information ,please contact the webmaster of this site (zgacg@hotmail.com) or leave a message on the website message board to delete【本站大部分资源来源于网络,如果有侵权,违规信息,请及时联系本站站长(zgacg@hotmail.com)或网站留言板块留言进行删除。谢谢!】
王者ACG资源网|王者二次元游戏|steam优惠券|steam游戏 » [DDD] CONCRETE REVOLUTIO:超人幻想 [BDrip 720p HEVC AAC][10bits]